#TITLE:Maria;
#SUBTITLE:;
#ARTIST:金雅中;
#TITLETRANSLIT:;
#SUBTITLETRANSLIT:;
#ARTISTTRANSLIT:;
#CREDIT:;
#BANNER:Maria-logo.jpg;
#BACKGROUND:maria.jpg;
#LYRICSPATH:;
#CDTITLE:Lan.png;
#MUSIC:Maria.mp3;
#OFFSET:-0.040;
#SAMPLESTART:100.000;
#SAMPLELENGTH:12.000;
#SELECTABLE:YES;
#BPMS:0.000=160.030;
#STOPS:;
#BGCHANGES:;
// cache tags:
#FIRSTBEAT:4.000;
#LASTBEAT:494.000;
#SONGFILENAME:Songs/SDO/Maria/Maria.sm;
#HASMUSIC:1;
#HASBANNER:1;
#MUSICLENGTH:186.818;
// end cache tags

//---------------dance-single - sky----------------
#NOTES:
     dance-single:
     sky:
     Hard:
     10:
     1.000,1.000,1.000,0.139,0.131,840.000,454.000,26.000,0.000,80.000:

0000
0000
0000
0000
,
0101
0101
0101
0101
,
0101
0101
1001
1001
,
1010
1010
1010
1010
,
1010
0000
1010
0000
1001
0100
0011
0000
,
0101
0101
0101
0101
,
0101
0101
0110
0110
,
1010
1010
1010
1010
,
1010
1010
0110
0110
,
0101
0101
0101
0101
,
0101
0101
0110
0110
,
1010
1010
1010
1010
,
1010
0000
1010
0000
1010
1000
0011
0000
,
0101
0000
0101
0000
0101
0100
0011
0000
,
0110
0000
0110
0010
1001
0001
0110
0000
,
1010
0000
1010
0000
1010
1000
0110
0000
,
1010
0000
1010
0010
0101
0001
0110
0000
,
0101
0000
0101
0000
0101
0100
0011
0000
,
0110
0000
0110
0010
1001
1000
0101
0000
,
1010
0000
1010
0000
1010
1000
0110
0000
,
1010
0000
1010
0001
0110
1000
0110
0000
,
1001
0000
1001
0000
1001
1000
0101
0000
,
0110
0000
0110
0100
1001
0001
1100
0000
,
1010
0000
1010
0000
1010
0010
1100
0000
,
1001
0000
1001
0001
1010
1000
0110
0000
,
1001
0000
1001
0000
1001
0001
1010
0000
,
0110
0000
0110
0010
1100
0100
0011
0000
,
1010
0000
0001
0000
1000
1000
0001
0000
,
1110
0000
0101
0000
1010
1010
0101
0000
,
1000
0000
0000
0000
0000
0000
0000
0010
0001
0000
0000
0000
0000
0000
0000
0000
0000
0000
0000
0000
0000
0000
0000
0100
0010
0000
0000
0000
0000
0000
0000
0000
0000
0000
0000
0000
0000
0000
0000
1000
0001
0000
0000
0000
0000
0000
0000
0000
0100
0000
0000
0000
0010
0000
0000
0000
0100
0000
0000
0000
0010
0000
0000
0000
,
0002
0000
1010
0000
1000
1000
0103
0000
,
2001
0000
0101
0000
0001
0001
3100
0000
,
1002
0000
1010
0000
1000
1000
0013
0000
,
0001
0001
1010
1000
0001
0001
1000
0010
,
1002
0000
1010
0000
1000
1000
0013
0000
,
0201
0000
1001
0000
0001
0001
1300
0000
,
1020
0000
1001
0000
1000
1000
0031
0000
,
1000
0000
1000
0000
0001
0000
0001
0000
0100
0000
0100
0000
0001
0010
0001
0010
,
2001
0000
0111
0000
0001
0001
0110
0000
,
0001
0000
0101
0000
0001
0001
3110
0000
,
1012
0000
0110
0000
1000
1000
0113
0000
,
1001
0001
1010
1000
0001
0001
1010
0001
,
1002
0000
1010
0000
0100
0100
1013
0000
,
2001
0100
0001
0010
0100
0100
3001
0010
,
1001
0100
0011
0100
1001
0001
1100
0001
,
1010
0000
1010
0000
0101
0000
0101
0000
1001
0000
1001
0000
0110
1001
0110
1001
,
0110
0000
0110
0000
0110
0010
1101
0000
,
1010
0000
1010
0010
1001
1000
1101
0000
,
1001
0000
1001
0000
1001
0001
1001
0000
,
1001
0000
1001
1000
0101
0100
1011
0000
,
0110
0000
0110
0000
0110
0100
1011
0000
,
1010
0000
1010
1000
0101
0001
1010
0000
,
1001
0000
1101
0000
1001
1000
0101
0000
,
1221
0000
0000
0000
0000
0000
0000
1000
0001
0000
0000
0000
0000
0000
0000
0000
0000
0000
0000
0000
0000
0000
0000
1000
0001
0000
0000
0000
0000
0000
0000
0000
0000
0000
0000
0000
0000
0000
0000
1000
0001
0000
0000
0000
0000
0000
0000
1000
0331
0000
0000
0000
0000
0000
0000
1000
0001
0000
0000
0000
0000
0000
0000
0000
,
1001
0100
0011
1000
0110
0110
1001
0010
,
1001
0100
0011
1000
0110
0110
1001
0010
,
1001
0100
1001
0010
1100
1100
0011
0100
,
1001
1000
0110
0100
1001
1000
0110
0100
,
1001
0100
0011
1000
0110
0110
1001
0100
,
1001
0100
1010
0001
0110
0110
1001
0100
,
1001
0100
1010
0001
1100
1100
0011
0100
,
1010
0000
0010
0000
0101
0000
0001
0000
1010
0000
0100
1000
0010
0001
1000
0100
,
2001
0010
0100
0001
0100
0001
0101
0010
,
0001
0010
0100
0001
0010
0010
3101
0001
,
1010
0100
0011
1000
0101
0101
1010
0001
,
1010
1000
0101
0001
1010
0100
1001
0010
,
1100
0001
1010
0001
1100
1100
0010
0001
,
1100
0001
1010
0001
1100
1100
0010
0001
,
1010
0001
0100
0001
1100
1100
0001
0010
,
1001
0000
1000
0000
0110
0000
0100
0000
1001
0000
0100
0010
0001
1000
0100
0010
,
1001
1001
1001
1001
1001
1001
0110
1001
,
0101
0101
0101
0101
0101
0101
1010
0101
,
1010
1010
1010
1010
1010
1010
0101
1010
,
0101
0101
0101
0101
0101
0101
1001
0110
,
1011
1011
1011
1011
1011
1011
1100
0011
,
1110
1110
1110
1110
1110
1110
0011
1100
,
0111
0111
0111
0110
0110
0110
1101
1101
,
1101
0110
0110
0110
0101
0101
1010
1010
,
1101
0000
1010
0201
0000
0010
1001
0000
,
1301
0000
0000
0000
1010
0000
0102
0000
0000
0000
0100
1000
0100
0000
0000
0000
,
1013
0000
0101
2010
0100
0001
0101
0010
,
3100
0010
0001
1010
0001
0010
0100
1000
,
0011
0100
1010
0102
0000
1000
0110
1000
,
1013
0000
0000
0000
0101
0000
2010
0000
0001
0000
0010
0001
0110
0000
0001
0000
,
3101
0000
0010
0102
1000
0100
1010
0010
,
0103
1000
0111
0001
0110
1000
1010
0101
,
0010
0100
1000
0000
0000
0000
0000
0000
0000
0000
0000
0000
0000
0000
0000
0000
0001
0000
0000
0000
0000
0000
0000
0000
0100
1000
0000
0000
0000
0000
0000
0000
0000
0000
0000
0000
0000
0000
0000
0000
0010
0000
0000
0000
0000
0000
0000
0000
0001
0000
0000
0000
0000
0000
0000
0000
0000
0000
0000
0000
0000
0000
0000
0000
,
1000
0000
0010
0001
0010
1000
0100
0010
0001
0100
1000
0001
0010
0010
0001
0001
,
1100
0010
0101
1000
0110
0110
0001
1000
,
1100
0010
0101
1000
0110
0110
0001
1010
,
0101
0010
0001
1000
0110
0110
0001
1010
,
0101
0100
1010
1000
1001
0100
1001
0010
,
1100
0010
1001
0010
1100
1100
0010
0001
,
1101
0010
1001
0010
1100
1100
0010
0001
,
0110
1000
0101
0010
1100
1100
0010
0001
,
1010
0000
0100
0000
1001
0000
0010
0000
1001
0100
0010
1000
0100
0001
0100
0010
,
1001
1000
0101
1000
0011
0011
1000
0001
,
1001
1000
0101
1000
0011
0011
1000
0001
,
0110
0100
1001
0100
0011
0011
0100
1000
,
0101
0010
0101
1000
0011
1000
0011
0100
,
1001
0100
1010
0001
0110
0110
1000
0001
,
1001
0100
1010
0001
0110
0110
1000
0001
,
1001
0100
0011
1000
0110
0110
0001
1000
,
0101
0000
0001
0000
1010
0000
0010
0000
0101
0000
0100
0000
1001
0100
0010
0100
,
2002
0000
0000
0000
,
0000
0000
0000
3113
,
1101
0010
0101
1000
0011
0011
1000
0100
,
1001
0010
1001
0100
0011
0011
0100
1010
,
1101
0010
0101
1000
0101
0101
1000
0101
,
1001
0010
1001
0100
0011
0011
0100
1010
,
1001
0100
0011
1000
0011
0011
0100
1000
,
0010
0000
0001
0100
0001
0010
1000
0010
0100
1000
0001
0100
0010
0100
0001
0010
,
0000
0000
0000
0000
,
2002
0000
0000
0000
0000
0000
0000
0000
0000
0000
0100
0010
3103
0000
0000
0000
,
1011
0010
0101
1000
0110
0110
0001
1000
,
0101
0100
0011
0010
1101
0001
1010
0100
,
1101
0010
0101
1000
0110
0110
0001
1010
,
0101
0010
0001
1000
0110
0110
0001
1010
,
0111
0100
0100
1011
0001
0001
1100
0010
,
1101
1000
1000
0111
0001
0001
1010
0001
,
1101
1000
1000
0111
0001
0001
1100
0001
,
0111
0000
1000
0000
1000
0000
0110
0000
0001
0000
0001
1000
0001
1000
0010
0100
,
2022
0000
0000
0000
,
0000
0000
0000
3033
1111
0000
0000
0000
;
